Detective Conan Movie HD 9 IN ITALIANO

« Older   Newer »
 
.
  1.  
    .
    Avatar

    Ash

    Group
    Administrator
    Posts
    2,020
    Reputation
    +122

    Status
    Offline

    Detective Conan Movie 9
    La strategia degli abissi


    jpg

    Detective Conan: La strategia degli abissi (名探偵コナン 水平線上の陰謀(ストラテジー) Meitantei Konan - Suiheisenjō no sutoratejī?, letteralmente "Detective Conan - La strategia sul pelo dell'acqua"), conosciuto anche con il titolo internazionale Detective Conan: Strategy Above the Depths, è il nono lungometraggio dedicato all'anime Detective Conan, uscito in Giappone il 9 aprile 2005 e presentato in Giappone anche come Kogoro Special, poiché Kogoro riesce a risolvere il caso senza l'aiuto di Conan. In Italia è stato trasmesso su Italia 2, diviso in cinque parti da circa venti minuti, dall'8 al 12 giugno 2012 alle ore 20:40, senza l'introduzione che riassume la storia e con l'epilogo posto prima della sigla finale anziché dopo come in originale.
    Ha incassato circa 2 miliardi e 150 milioni di yen (all'incirca 16 milioni di euro), oltre ad aver vinto nella sezione lungometraggi del Tokyo Anime Award.

    TRAMA Conan, Ran, Kogoro, il dottor Agasa, Sonoko, Ai e i detective boys si trovano a bordo della nave Aphrodite, una crociera del gruppo Yashiro nel suo viaggio inaugurale. La vacanza viene però rovinata da un duplice omicidio, collegato all'affondamento di una nave del gruppo Yashiro avvenuto 15 anni prima.
    IMMAGINI



    MEDIA INFO


    General
    Unique ID : 215799114963239506686123408760813897171 (0xA25965D2D00DB207BDF4E20E53B3C5D3)
    Complete name : C:\Users\SARA\Desktop\HD\[DCF] DC M9 ITA BDRIP HD.mkv
    Format : Matroska
    File size : 2.05 GiB
    Duration : 1h 47mn
    Overall bit rate : 2 723 Kbps
    Encoded date : UTC 2012-06-14 14:21:16
    Writing application : mkvmerge v3.3.0 ('Language') built on Mar 24 2010 14:59:24
    Writing library : libebml v0.8.0 + libmatroska v0.9.0
    Cover : Yes / Yes / Yes / Yes / Yes / Yes / Yes / Yes / Yes / Yes / Yes / Yes / Yes / Yes / Yes / Yes

    Video
    ID : 3
    Format : AVC
    Format/Info : Advanced Video Codec
    Format profile : High@L3.1
    Format settings, CABAC : Yes
    Format settings, ReFrames : 3 frames
    Codec ID : V_MPEG4/ISO/AVC
    Duration : 1h 47mn
    Bit rate : 2 376 Kbps
    Width : 1 280 pixels
    Height : 720 pixels
    Display aspect ratio : 16:9
    Frame rate : 23.976 fps
    Color space : YUV
    Chroma subsampling : 4:2:0
    Bit depth : 8 bits
    Scan type : Progressive
    Bits/(Pixel*Frame) : 0.108
    Stream size : 1.77 GiB (86%)
    Writing library : x264 core 65 r999kMod cc51047
    Encoding settings : cabac=1 / ref=3 / deblock=1:0:0 / analyse=0x3:0x133 / me=umh / subme=6 / psy_rd=1.0:0.0 / mixed_ref=1 / me_range=16 / chroma_me=1 / trellis=1 / 8x8dct=1 / cqm=0 / deadzone=21,11 / chroma_qp_offset=-2 / threads=2 / thread_queue=2 / nr=0 / decimate=1 / mbaff=0 / bframes=3 / b_pyramid=0 / b_adapt=1 / b_bias=0 / direct=1 / wpredb=1 / keyint=250 / keyint_min=25 / scenecut=40(pre) / rc=abr / bitrate=2376 / ratetol=1.0 / qcomp=0.60 / qpmin=10 / qpmax=51 / qpstep=4 / ip_ratio=1.40 / pb_ratio=1.30 / aq=1:1.00

    Audio #1
    ID : 4
    Format : MPEG Audio
    Format version : Version 1
    Format profile : Layer 3
    Codec ID : A_MPEG/L3
    Codec ID/Hint : MP3
    Duration : 1h 44mn
    Bit rate mode : Variable
    Bit rate : 192 Kbps
    Channel(s) : 2 channels
    Sampling rate : 48.0 KHz
    Compression mode : Lossy
    Stream size : 144 MiB (7%)
    Title : AUDIO JAP
    Writing library : LAME3.97
    Encoding settings : -m s -V 4 -q 2 -lowpass 18.6 --abr 192
    Language : Japanese

    Audio #2
    ID : 5
    Format : MPEG Audio
    Format version : Version 1
    Format profile : Layer 3
    Mode : Joint stereo
    Mode extension : MS Stereo
    Codec ID : A_MPEG/L3
    Codec ID/Hint : MP3
    Duration : 1h 47mn
    Bit rate mode : Constant
    Bit rate : 128 Kbps
    Channel(s) : 2 channels
    Sampling rate : 44.1 KHz
    Compression mode : Lossy
    Stream size : 98.8 MiB (5%)
    Title : AUDIO ITA
    Writing library : LAME3.98.2
    Language : Italian

    Text #1
    ID : 1
    Format : ASS
    Codec ID : S_TEXT/ASS
    Codec ID/Info : Advanced Sub Station Alpha
    Compression mode : Lossless
    Title : DIALOGHI
    Language : Italian

    Text #2
    ID : 2
    Format : ASS
    Codec ID : S_TEXT/ASS
    Codec ID/Info : Advanced Sub Station Alpha
    Compression mode : Lossless
    Title : CARTELLI + CENSURE
    Language : Italian


    DOWNLOAD
    PARTE1 - PARTE2 - PARTE3 - PARTE4 - PARTE5 - PARTE6
    CREDITS: DCF per i sottotitoli
    FILE DA UNIRE CON HJSPLIT




    E' ASSOLUTAMENTE VIETATO POSTARE IN ALTRI SITI!(youtube e reupload compresi!)

    Edited by Ichigo no Getsuga - 17/6/2012, 20:50
     
    Top
    .
  2.  
    .

    Campione della Lega

    Group
    Member
    Posts
    1,007
    Reputation
    +112

    Status
    Anonymous

    grazie ichigo li ho già scaricati(la prima di questo e anche il 11 e 12)--> il tuo intento sarebbe di metterli tutti?
     
    Top
    .
  3.  
    .
    Avatar

    Ash

    Group
    Administrator
    Posts
    2,020
    Reputation
    +122

    Status
    Offline

    certo
    li ho tutti, manca solo il 10
     
    Top
    .
  4.  
    .
    Avatar

    Ash

    Group
    Administrator
    Posts
    2,020
    Reputation
    +122

    Status
    Offline

    completo
     
    Top
    .
  5.  
    .

    Campione della Lega

    Group
    Member
    Posts
    1,007
    Reputation
    +112

    Status
    Anonymous

    grande ichigo ma mi fai dannare a scaricare tutti i file xD
     
    Top
    .
  6.  
    .
    Avatar

    Superquattro

    Group
    Member
    Posts
    625
    Reputation
    0
    Location
    Italy

    Status
    Offline

    E' in ita?

    -SuperDetectiveConGliOcchiali-


    detective-conan-o gif5

    tumblr_ma8oc5i9EU1rdy3k8o1_500

     
    Top
    .
5 replies since 16/6/2012, 17:32
 
.
Top